, Comedy | Karrueche Tran | Grimm 8.3
fastshare
Tygří železnice / Railroad Tigers (2016)
Vypnout statistiky
KATEGORIEPOSLEDNÍ PŘÍSPĚVKYPOSLEDNÍ OZNÁMENÍSTATISTIKY UŽIVATELE
Nick: Anonymous
Příspěvků: 3361
Hodnost: Warman
Varování: 0
---
Právě je 17 srp 2018, 02:13





Všechny časy jsou v UTC + 1 hodina


Pravidla fóra







Odeslat nové téma Odpovědět na téma  [ Příspěvků: 3 ] 
 Tygří železnice / Railroad Tigers (2016) 
Autor Zpráva
Lieutenant
Lieutenant

Registrován: 10 čer 2018, 20:41
Příspěvky: 217
Příspěvek Tygří železnice / Railroad Tigers (2016)

Railroad.Tigers.2016.1080p.BluRay.x264.AC3.CZ


Tygří železnice / Railroad Tigers (2016)









24 črc 2018, 11:11
Profil
Captain
Captain

Registrován: 09 bře 2009, 18:27
Příspěvky: 286
Příspěvek Re: Tygří železnice / Railroad Tigers (2016)

Tygří železnice / Tie dao fei hu (2016)(1080p)(BluRay)(CZ/CHI)




Cover:

Re: Tygří železnice / Railroad Tigers (2016)

Info:

Jazyk: CZ 2.0 , CHI 5.1
Titulky: CZ
Kvalita zvuku: MediaInfo
Kvalita videa: MediaInfo
Csfd:

Info:


Download:


01 srp 2018, 23:49
Profil
Warrant
Warrant

Registrován: 15 črc 2008, 21:29
Příspěvky: 169
Příspěvek Re: Tygří železnice / Railroad Tigers (2016)

Tygří železnice / Railroad Tigers (2016) [BR-RIP]

Akční / Komedie / Válečný
Příběh se odehrává v době, kdy je Čína okupována Japonci. Skupinka odvážlivců, kteří si říkají Tygři, proti okupantům brojí a okrádá je. Jednoho dne objeví zraněného čínského vojáka, který jako jediný přežil japonský útok. Po jeho smrti převezmou úkol jeho jednotky a vydávají se na svou nejnebezpečnější misi - zničit chan-čuangský most.

INFO:

Re: Tygří železnice / Railroad Tigers (2016)
________________________________________________________________________________

11614 MB

Video: 1920x800 - AVC/H264 - 24 fps - 10 Mbps
Audio: CZ dabing - AC3 5.1 - 448 Kbps
Audio: CZ dabing - AC3 2.0 - 224 Kbps
Audio: CHINA - DTS 5.1 - 1.5 Mbps
Čas: 2:04:16

MediaInfo
General
Format : Matroska
Format version : Version 4 / Version 2
File size : 10.8 GiB
Duration : 2 h 4 min
Overall bit rate : 12.5 Mb/s
Writing application : Lavf57.83.100
Writing library : Lavf57.83.100
ErrorDetectionType : Per level 1

Video
ID : 1
Format : AVC
Format/Info : Advanced Video Codec
Format profile : [email protected]
Format settings : CABAC / 4 Ref Frames
Format settings, CABAC : Yes
Format settings, RefFrames : 4 frames
Codec ID : V_MPEG4/ISO/AVC
Duration : 2 h 4 min
Bit rate : 10.0 Mb/s
Width : 1 920 pixels
Height : 800 pixels
Display aspect ratio : 2.40:1
Frame rate mode : Constant
Frame rate : 24.000 FPS
Color space : YUV
Chroma subsampling : 4:2:0
Bit depth : 8 bits
Scan type : Progressive
Bits/(Pixel*Frame) : 0.272
Stream size : 8.71 GiB (81%)
Writing library : x264 core 148 r2744 b97ae06
Encoding settings : cabac=1 / ref=4 / deblock=1:-1:-1 / analyse=0x3:0x133 / me=umh / subme=8 / psy=1 / psy_rd=1.00:0.00 / mixed_ref=1 / me_range=16 / chroma_me=1 / trellis=2 / 8x8dct=1 / cqm=0 / deadzone=21,11 / fast_pskip=0 / chroma_qp_offset=-2 / threads=6 / lookahead_threads=1 / sliced_threads=0 / nr=0 / decimate=1 / interlaced=0 / bluray_compat=0 / constrained_intra=0 / bframes=3 / b_pyramid=2 / b_adapt=2 / b_bias=0 / direct=3 / weightb=1 / open_gop=0 / weightp=2 / keyint=240 / keyint_min=24 / scenecut=50 / intra_refresh=0 / rc_lookahead=60 / rc=crf / mbtree=1 / crf=17.0 / qcomp=0.60 / qpmin=0 / qpmax=69 / qpstep=4 / vbv_maxrate=62500 / vbv_bufsize=78125 / crf_max=0.0 / nal_hrd=none / filler=0 / ip_ratio=1.40 / aq=1:1.00
Default : Yes
Forced : No

Audio #1
ID : 2
Format : AC-3
Format/Info : Audio Coding 3
Codec ID : A_AC3
Duration : 2 h 4 min
Bit rate mode : Constant
Bit rate : 448 kb/s
Channel(s) : 6 channels
Channel positions : Front: L C R, Side: L R, LFE
Sampling rate : 48.0 kHz
Frame rate : 31.250 FPS (1536 SPF)
Bit depth : 16 bits
Compression mode : Lossy
Stream size : 398 MiB (4%)
Writing library : Lavc57.107.100 ac3
Language : Czech
Service kind : Complete Main
Default : Yes
Forced : No

Audio #2
ID : 3
Format : AC-3
Format/Info : Audio Coding 3
Codec ID : A_AC3
Duration : 2 h 4 min
Bit rate mode : Constant
Bit rate : 224 kb/s
Channel(s) : 2 channels
Channel positions : Front: L R
Sampling rate : 48.0 kHz
Frame rate : 31.250 FPS (1536 SPF)
Bit depth : 16 bits
Compression mode : Lossy
Stream size : 199 MiB (2%)
Language : Czech
Service kind : Complete Main
Default : No
Forced : No

Audio #3
ID : 4
Format : DTS
Format/Info : Digital Theater Systems
Codec ID : A_DTS
Duration : 2 h 4 min
Bit rate mode : Constant
Bit rate : 1 509 kb/s
Channel(s) : 6 channels
Channel positions : Front: L C R, Side: L R, LFE
Sampling rate : 48.0 kHz
Frame rate : 93.750 FPS (512 SPF)
Bit depth : 24 bits
Compression mode : Lossy
Stream size : 1.31 GiB (12%)
Language : Chinese
Default : No
Forced : No

FullHD - AVC

________________________________________________________________________________


13 srp 2018, 05:04
Profil
Zobrazit příspěvky za předchozí:  Seřadit podle  
Odeslat nové téma Odpovědět na téma  [ Příspěvků: 3 ] 

Všechny časy jsou v UTC + 1 hodina


Nemůžete zakládat nová témata v tomto fóru
Nemůžete odpovídat v tomto fóru
Nemůžete upravovat své příspěvky v tomto fóru
Nemůžete mazat své příspěvky v tomto fóru
Nemůžete přikládat soubory v tomto fóru









StahovaniZaSMS Pizza Modena MP3 free download